Arrow Temporada 1, HDTV, Español, Multiservers, español latino

By

abril 15, 2013Dvdrip GratisNo comments


Arrow Temporada 1, HDTV, Español, Multiservers, español latino descarga directa, ver online, full HD, castellano, español latino, toda la temporada, dvdrip, rmvb




Después de un violento naufragio y tras haber desaparecido y creído muerto durante cinco años, el multimillonario playboy Oliver Queen es rescatado con vida en una isla del Pacífico. De vuelta en casa en Starling City, Oliver es recibido por su madre, su hermana y su mejor amigo, quienes rápidamente notan que la terrible experiencia sufrida lo ha cambiado. Por otra parte, Oliver trata de ocultar la verdad acerca de en quién se ha convertido mientras trata de enmendar los errores que cometió en el pasado y de reconciliarse con su ex novia, Laurel Lance. Mientras Oliver trata de volver a contactar a las personas de su pasado jugando el papel del mujeriego adinerado, despreocupado y descuidado que solía ser, ayudado por su fiel chofer y guardaespaldas John Diggle, crea en secreto el personaje de un justiciero encapuchado, un vigilante que lucha contra los males de la sociedad tratando de darle a su ciudad la gloria que antes tenía; complicando esta misión, se encuentra el Detective Lance, el padre de Laurel, quien está decidido a poner al vigilante tras las rejas.



Código:
Format                                   : AVI
Format/Info : Audio Video Interleave
File size : 276 MiB
Duration : 38mn 36s
Overall bit rate : 1 000 Kbps
Writing application : Lavf52.61.0
Writing library : VirtualDub build 32706/release

Video
ID : 0
Format : MPEG-4 Visual
Format profile : Simple@L3
Format settings, BVOP : No
Format settings, QPel : No
Format settings, GMC : No warppoints
Format settings, Matrix : Default (H.263)
Codec ID : XVID
Codec ID/Hint : XviD
Duration : 38mn 36s
Bit rate : 874 Kbps
Width : 720 pixels
Height : 576 pixels
Display aspect ratio : 4:3
Frame rate : 29.970 fps
Standard : PAL
Color space : YUV
Chroma subsampling : 4:2:0
Bit depth : 8 bits
Scan type : Progressive
Compression mode : Lossy
Bits/(Pixel*Frame) : 0.070
Stream size : 242 MiB (87%)
Writing library : XviD 1.2.1 (UTC 2008-12-04)

Audio
ID : 1
Format : MPEG Audio
Format version : Version 1
Format profile : Layer 3
Mode : Joint stereo
Mode extension : MS Stereo
Codec ID : 55
Codec ID/Hint : MP3
Duration : 38mn 36s
Bit rate mode : Constant
Bit rate : 112 Kbps
Channel(s) : 2 channels
Sampling rate : 44.1 KHz
Compression mode : Lossy
Stream size : 30.9 MiB (11%)
Alignment : Aligned on interleaves
Interleave, duration : 26 ms (0.78 video frame)
Interleave, preload duration : 522 ms






EPISODIO 1


EPISODIO 2



EPISODIO 3



EPISODIO 4



EPISODIO 5



EPISODIO 6




EPISODIO 7



EPISODIO 8



EPISODIO 9



EPISODIO 10




EPISODIO 11



EPISODIO 12


Spoiler



EPISODIO 13



EPISODIO 14




EPISODIO 15



EPISODIO 16



EPISODIO 17



EPISODIO 18 – Ingles Subtitulado en Español – A la espera en Español



EPISODIO 19 – Ingles Subtitulado en Español – A la espera en Español




Valoración: 0 / 5.00 (0 votos)

Arrow Temporada 1, HDTV, Español, Multiservers, español latino descarga directa, ver online, full HD, castellano, español latino, toda la temporada, dvdrip, rmvb


Descargar

  • arrow 1 español latino
  • arrow temporada 1 dvdrip full

Leave a Reply

You must be logged in to post a comment.