The Walking Dead | Temporada 03 | Capitulos [16/16]



· · · · · · · · · · · · · · · : : | Ficha Técnica | : : · · · · · · · · · · · · · · ·

Título: The Walking Dead
Título Original: The Walking Dead
Año: 2010
País: USA
Duración: 45 min.
Género: Terror | SciFi
Creador: Frank Darabont
Productora: AMC


· · · · · · · · · · · · · · · : : | Reparto | : : · · · · · · · · · · · · · · ·


★ Norman Reedus ★ Emma Bell ★ Andrew Lincoln ★ Laurie Holden ★ Sarah Wayne Callies ★ Jon Bernthal ★ Jeffrey DeMunn ★ Steven Yeun ★ Chandler Riggs ★ IronE Singleton

· · · · · · · · · · · · · · · : : | Sinopsis | : : · · · · · · · · · · · · · · ·

Narra la historia de un apocalipsis zombie. Un grupo de supervivientes, dirigidos por el policía Rick Grimes, viaja a través de los Estados Unidos tratando de poner sus vidas a salvo. Rick es el ayudante del Sheriff de un pueblo de Georgia, que epermaneció en coma durante la irrupción de la plaga. Aunque el leit motiv de la serie -cuyo episodio piloto está dirigido y escrito por Frank Darabont- sea el apocalipsis zombie, la narración se centra más en las relaciones entre los personajes, su evolución y comportamiento en las situaciones críticas.




WebSite The Walking Dead – AMC
FilmAffinity The Walking Dead | Las mejores series primero en Fox
IMDB The Walking Dead (TV Series 2010– ) – IMDb
YouTube http://d.dvdripmovies.org/decode.php?h=aHR0cDovL3d3dy55b3V0dWJlLmNvbS92L2xndmdBRnpsZE1z


· · · · · · · · · · · · · · · : : | Media Info | : : · · · · · · · · · · · · · · ·

Temporada: 03
Nº de Capitulos: 16
Rip: HDiTunes
Formato: 720p
Contenedor: MKV
Audio: Castellano
Tamaño: 1500 MB
Rippeo: xCarles
Media Info


código:
General
Format : Matroska
Format version : Version 2
File size : 1.45 GiB
Duration : 43mn 7s
Overall bit rate : 4 802 Kbps

Video
ID : 1
Format : AVC
Format/Info : Advanced Video Codec
Format profile : [email protected]
Format settings, CABAC : No
Format settings, ReFrames : 2 frames
Format settings, GOP : N=1
Codec ID : V_MPEG4/ISO/AVC
Duration : 43mn 7s
Width : 1 280 pixels
Height : 720 pixels
Display aspect ratio : 16:9
Frame rate mode : Constant
Frame rate : 23.976 fps
Color space : YUV
Chroma subsampling : 4:2:0
Bit depth : 8 bits
Scan type : Progressive
Language : Spanish
Default : Yes
Forced : Yes

Audio #1
ID : 2
Format : AC-3
Format/Info : Audio Coding 3
Mode extension : CM (complete main)
Format settings, Endianness : Big
Codec ID : A_AC3
Duration : 43mn 7s
Bit rate mode : Constant
Bit rate : 192 Kbps
Channel(s) : 2 channels
Channel positions : Front: L R
Sampling rate : 48.0 KHz
Bit depth : 16 bits
Compression mode : Lossy
Stream size : 59.2 MiB (4%)
Language : Spanish
Default : Yes
Forced : Yes

Audio #2
ID : 3
Format : AC-3
Format/Info : Audio Coding 3
Mode extension : CM (complete main)
Format settings, Endianness : Big
Codec ID : A_AC3
Duration : 43mn 7s
Bit rate mode : Constant
Bit rate : 384 Kbps
Channel(s) : 6 channels
Channel positions : Front: L C R, Side: L R, LFE
Sampling rate : 48.0 KHz
Bit depth : 16 bits
Compression mode : Lossy
Stream size : 118 MiB (8%)
Language : English
Default : No
Forced : No

Audio #3
ID : 4
Format : AAC
Format/Info : Advanced Audio Codec
Format profile : LC
Codec ID : A_AAC
Duration : 43mn 7s
Channel(s) : 2 channels
Channel positions : Front: L R
Sampling rate : 48.0 KHz
Compression mode : Lossy
Language : English
Default : No
Forced : No

Text #1
ID : 5
Format : UTF-8
Codec ID : S_TEXT/UTF8
Codec ID/Info : UTF-8 Plain Text
Language : Spanish
Default : Yes
Forced : Yes

Text #2
ID : 6
Format : UTF-8
Codec ID : S_TEXT/UTF8
Codec ID/Info : UTF-8 Plain Text
Language : Spanish
Default : No
Forced : No

Text #3
ID : 7
Format : UTF-8
Codec ID : S_TEXT/UTF8
Codec ID/Info : UTF-8 Plain Text
Language : English
Default : No
Forced : No


· · · · · · · · · · · · · · · : : | Links | : : · · · · · · · · · · · · · · ·

Share-Links.biz
· · · · · · · · · · · · · · · · · · · · · · · · · · · · · · · · · · · · · · · · · ·

Visita mi Perfil para ver MI CATALOGO de Series | Temporadas en Defición Estándar y Alta Definición